XXXTOR.net - это открытый порно торрент трекер без регистрации и рейтинга. Если вам не исполнилось 18 лет, вы должны покинуть сайт!

Aneimo / Four For Foreplay / Анэймо (Milky, MS Pictures, Flavors Soft) (ep. 1-2 of 2) [uncen] [2008, big breasts, blowjob, harem, romance, school, straight, titsjob, virgins, waitresses, Blu-Ray] [jap / eng] [1080p]

Скачать торрент Aneimo / Four For Foreplay / Анэймо ....
КатегорияBlowjob / Fat / Japan / School / Soft / Tits / Trans




Информация о видео

Aneimo / Four For Foreplay / あねいも / Анэймо


Год выпуска: 2008
Жанр: big breasts, blowjob, harem, romance, school, straight, titsjob, virgins, waitresses
Серии: ep. 1-2 of 2
Продолжительность: 2 ep. 30 min. each
Цензура: Отсутствует

Язык: Японский
Озвучка: Оригинальная
Язык: Английский
Субтитры: Есть

Режиссер: Milky, MS Pictures
Автор оригинала: bootUP!
Студия: Flavors Soft

Описание: Takumi lives next to Mizuki and Satsuki s house. They have been good friends since they were kids, going shopping and skiing together. One day, Kazuyoshi, Takumi s father, brings two girls, Saori and Yui, back to their house, and accepts them as new family members. At first, he is confused, but gradually becomes closer to them...

Тип HD видео: 1080p
Качество видео: Blu-Ray
Формат видео: Blu-Ray Video
Видео: 1920x1080, AVC (h.264), 16:9, 29.970 fps, 23.6 Mb/s, Qf 0.380
Аудио 1: Japanese, PCM, 48.0 kHz, 1536 Kb/s, 2ch (stereo)

"mediainfo"
General
ID : 0 (0x0)
Complete name : 00000.m2ts
Format : BDAV
Format/Info : Blu-ray Video
File size : 11.2 GiB
Duration : 1 h 1 min
Overall bit rate mode : Variable
Overall bit rate : 26.2 Mb/s
Maximum Overall bit rate : 48.0 Mb/s

Video
ID : 4113 (0x1011)
Menu ID : 1 (0x1)
Format : AVC
Format/Info : Advanced Video Codec
Format profile : High@L4.1
Format settings : CABAC / 4 Ref Frames
Format settings, CABAC : Yes
Format settings, Reference frames : 4 frames
Codec ID : 27
Duration : 1 h 1 min
Bit rate mode : Variable
Bit rate : 23.6 Mb/s
Maximum bit rate : 30.0 Mb/s
Width : 1 920 pixels
Height : 1 080 pixels
Display aspect ratio : 16:9
Frame rate : 29.970 (30000/1001) FPS
Color space : YUV
Chroma subsampling : 4:2:0
Bit depth : 8 bits
Scan type : Interlaced
Scan type, store method : Separated fields
Scan order : Top Field First
Bits/(Pixel*Frame) : 0.380
Stream size : 10.1 GiB (90%)
Color range : Limited
Color primaries : BT.709
Transfer characteristics : BT.709
Matrix coefficients : BT.709

Audio
ID : 4352 (0x1100)
Menu ID : 1 (0x1)
Format : PCM
Format settings : Big / Signed
Muxing mode : Blu-ray
Codec ID : 128
Duration : 1 h 1 min
Bit rate mode : Constant
Bit rate : 1 536 kb/s
Channel(s) : 2 channels
Channel layout : L R
Sampling rate : 48.0 kHz
Bit depth : 16 bits
Stream size : 670 MiB (6%)

Text
ID : 4608 (0x1200)
Menu ID : 1 (0x1)
Format : PGS
Codec ID : 144
"Menu"

Скриншоты:

Скриншот №1 для Aneimo / Four For Foreplay / Анэймо (Milky, MS Pictures, Flavors Soft) (ep. 1-2 of 2) [uncen] [2008, big breasts, blowjob, harem, romance, school, straight, titsjob, virgins, waitresses, Blu-Ray] [jap / eng] [1080p] Скриншот №2 для Aneimo / Four For Foreplay / Анэймо (Milky, MS Pictures, Flavors Soft) (ep. 1-2 of 2) [uncen] [2008, big breasts, blowjob, harem, romance, school, straight, titsjob, virgins, waitresses, Blu-Ray] [jap / eng] [1080p] Скриншот №3 для Aneimo / Four For Foreplay / Анэймо (Milky, MS Pictures, Flavors Soft) (ep. 1-2 of 2) [uncen] [2008, big breasts, blowjob, harem, romance, school, straight, titsjob, virgins, waitresses, Blu-Ray] [jap / eng] [1080p] Скриншот №4 для Aneimo / Four For Foreplay / Анэймо (Milky, MS Pictures, Flavors Soft) (ep. 1-2 of 2) [uncen] [2008, big breasts, blowjob, harem, romance, school, straight, titsjob, virgins, waitresses, Blu-Ray] [jap / eng] [1080p] Скриншот №5 для Aneimo / Four For Foreplay / Анэймо (Milky, MS Pictures, Flavors Soft) (ep. 1-2 of 2) [uncen] [2008, big breasts, blowjob, harem, romance, school, straight, titsjob, virgins, waitresses, Blu-Ray] [jap / eng] [1080p] Скриншот №6 для Aneimo / Four For Foreplay / Анэймо (Milky, MS Pictures, Flavors Soft) (ep. 1-2 of 2) [uncen] [2008, big breasts, blowjob, harem, romance, school, straight, titsjob, virgins, waitresses, Blu-Ray] [jap / eng] [1080p] Скриншот №7 для Aneimo / Four For Foreplay / Анэймо (Milky, MS Pictures, Flavors Soft) (ep. 1-2 of 2) [uncen] [2008, big breasts, blowjob, harem, romance, school, straight, titsjob, virgins, waitresses, Blu-Ray] [jap / eng] [1080p] Скриншот №8 для Aneimo / Four For Foreplay / Анэймо (Milky, MS Pictures, Flavors Soft) (ep. 1-2 of 2) [uncen] [2008, big breasts, blowjob, harem, romance, school, straight, titsjob, virgins, waitresses, Blu-Ray] [jap / eng] [1080p]


ТегиBlowjob, Fat, Japan, School, Soft, Tits, Trans, 1080p, BluRay, Хентай и игры
ОценкаНикто ещё не поставил оценку
Просмотров0
Добавлен24-11-2022
Размер12.64 GB


Наверх
Вверх




XXXTOR.NET не содержит никакой нелегальной информации. Владельцы сайта не могут нести ответственности за действия пользователей. Этот ресурс полностью анонимный - IP адреса и действия пользователей не сохраняются. Сайт не предоставляет электронные версии произведений, а занимается индексированием файлов, находящихся в файлообменных сетях. Все права на произведения принадлежат правообладателям. Если вы являетесь правообладателем произведения, проиндексированного нашей поисковой машиной и не желаете чтобы ссылка на него находилась в нашем каталоге, свяжитесь с нами и мы незамедлительно удалим её. Публикация материалов сайта возможна только с разрешения администрации.